promo box free

Wav Pre-gap length 0:00:02.00 Peak level.9 Track quality 100.0 Test CRC 32D4090B Copy cadeau garçon 9 ans foot CRC 32D4090B Track not present in AccurateRip database Copy OK Track 2 Filename E:Own RipsFree - Disk Union Promo Box (2002) flacfree - Heartbreaker (1973) flac cafe gusto vouchers (Japan uicy-9203)02 - Come Together.
Used interface : Native Win32 interface for Win NT 2000.
Wav Peak level.3 Track quality 100.0 Test CRC 391EC3DB Copy CRC 391EC3DB Track not present in AccurateRip database Copy OK Track 5 Filename E:Own RipsFree - Disk Union Promo Box (2002) flacfree - Live!
(1971) flac (Japan uicy-9201)13 - Mr Big.
Walk in My Shadow 04:15.Woman by the Sea (Alternative Version, Alternate Take) 03:22.Wishing Well 03:43.Little Bit of Love 02:34.Wav Peak level.9 Track quality 100.0 Test CRC 038E4A8D Copy CRC 038E4A8D Track not present in AccurateRip database Copy OK Track 6 Filename E:Own RipsFree - Disk Union Promo Box (2002) flacfree - Live!Sweet Tooth 04:54.Sunny Day 03:09.(1971) flac (Japan uicy-9201)07 - The Hunter.



Wav Pre-gap length 0:00:01.92 Peak level.0 Track quality 100.0 Test CRC 2FF0902F Copy CRC 2FF0902F Track not present in AccurateRip database Copy OK Track 8 Filename E:Own RipsFree - Disk Union Promo Box (2002) flacfree - Heartbreaker (1973) flac (Japan uicy-9203)08 - Seven Angels.
Fire and Water (New Stereo Mix) 04:26.
Don't miss another Mostly Homemade Mom recipe!
These nuts were my absolute favorite snack in this box, they were SO good!
Wav Pre-gap length 0:00:03.06 Peak level.9 Track quality.9 Test CRC C6A6edcf Copy CRC C6A6edcf Track not present in AccurateRip database Copy OK Track 6 Filename E:Own RipsFree - Disk Union Promo Box (2002) flacfree - Free (1969) flac (Japan uicy-9131)06 - Woman.Mourning Sad Morning (Alternative Version) 05:11 Exact Audio Copy.99 prebeta 4 from.Free / Tons of Sobs, used drive : HL-DT-stdvd-ROM GDR8163B Adapter: 1 ID:.Facebook, Pinterest, Twitter, Instagram, or, google - I'd love to connect with you!My Brother Jake (Single) 02:51.





Come Together in the Morning 04:42.

[L_RANDNUM-10-999]